查看: 97050|回复: 3
打印 上一主题 下一主题

李贞贤05年日本演唱会高清片源压制

[复制链接]

576

主题

0

好友

1089

积分

学士

Rank: 7Rank: 7Rank: 7

该用户从未签到

G币
193
最后登录
2016-8-2
注册时间
2011-11-8

IP 编辑 禁止 帖子 清理

跳转到指定楼层
楼主
发表于 2011-12-26 13:48 |只看该作者 |倒序浏览
General
      Complete name :李贞贤日本演唱会整场完整版.avi
      Format : AVI
      Format/Info : Audio Video Interleave
      File size : 827 MiB
      Duration : 53mn 44s
      Overall bit rate : 2 152 Kbps
      Writing library : TMPGEnc 3.0 XPress Version. 3.3.7.116
   Video #0
      ID : 0
      Format : MPEG-4 Visual
      Format settings, BVOP : Yes
      Format settings, QPel : No
      Format settings, GMC : No warppoints
      Format settings, Matrix : Default (H.263)
      Muxing mode : Packed bitstream
      Codec ID : DX50
      Codec ID/Hint : DivX 5
      Duration : 53mn 44s
      Bit rate : 2 008 Kbps
      Width : 640 pixels
      Height : 480 pixels
      Display aspect ratio : 4:3
      Frame rate : 59.940 fps
      Resolution : 24 bits
      Scan type : Progressive
      Bits/(Pixel*Frame) : 0.109
      Stream size : 772 MiB (93%)
      Writing library : DivX 5.2.1 Beta (UTC 2004-09-08)
   Audio #1
      ID : 1
      Format : MPEG Audio
      Format version : Version 1
      Format profile : Layer 3
      Codec ID : 55
      Codec ID/Hint : MP3
      Duration : 53mn 44s
      Bit rate mode : Constant
      Bit rate : 128 Kbps
      Channel(s) : 2 channels
      Sampling rate : 48.0 KHz
      Resolution : 16 bits
      Stream size : 49.2 MiB (6%)
      Alignment : Split accross interleaves
      Interleave, duration : 250 ms (14.98 video frames)

                                下载 (176.7 KB)
2011-1-19 09:46


http://u.115.com/file/f15a784122#
李贞贤日本演唱会整场完整版.avi
分享到:
365夜童话故事  天天动听4.0

3

主题

0

好友

1123

积分

研究生

Rank: 8Rank: 8

该用户从未签到

G币
326
最后登录
2017-1-5
注册时间
2011-7-30

IP 编辑 禁止 帖子 清理

沙发
发表于 2011-12-26 14:49 |只看该作者
谢谢了。不错。
cutv  line 安卓

0

主题

0

好友

2

积分

幼儿园

Rank: 1

该用户从未签到

G币
11
最后登录
2016-8-2
注册时间
2012-8-7

IP 编辑 禁止 帖子 清理

板凳
发表于 2012-8-7 09:22 |只看该作者
好东西,谢谢楼主了~
汉日互译  iphone省电软件

66

主题

5

好友

869

积分

学士

Rank: 7Rank: 7Rank: 7

该用户从未签到

G币
192
最后登录
2016-8-2
注册时间
2012-3-26

IP 编辑 禁止 帖子 清理

地板
发表于 2012-8-7 09:37 |只看该作者
机锋有你更精彩!
怎么样隐藏文件夹   tigerarcade
高级模式
B Color Image Link Quote Code Smilies @朋友 |上传

举报|手机版|机锋网 ( 京ICP备15020343号 | 京公网安备11010802020450号

GMT+8, 2017-2-15 19:28

Powered by Discuz! X2.5

© 2001-2012 Comsenz Inc.

回顶部