请选择 进入手机版 | 继续访问电脑版

机锋论坛

  • 关注机锋
  • 关注机锋
 找回密码
 注册
查看: 65773|回复: 103

小黄人2010~2013短片6部,最新15年的搜寻中~

[复制链接]

136

主题

0

好友

3008

积分

博士

Rank: 10Rank: 10Rank: 10

  • TA的每日心情
    开心
    2018-1-22 23:31
  • 签到天数: 7 天

    [LV.3]偶尔看看II

    G币
    634412
    最后登录
    2018-11-17
    注册时间
    2012-2-24
    发表于 2015-11-5 00:10 |显示全部楼层

    马上注册,结交更多机友,下载更多应用,让你轻松玩转手机。

    立即注册 已有帐号?点击登录   下载游戏和软件,请【猛击这里】进入机锋市场!

    ×

    最火的配角,小黄人。这几个是“卑鄙的我”电影的番外篇,很有趣。原版高清。视频参数如下:
    General
    Unique ID                      : 240434659413765300775405716102590344192 (0xB4E207F12578F69FAB4D4EB916C9AC00)
    Complete name                  : E:\Documents\Desktop\Despicable.Me.Banana.Mini.Movie.2010.1080p.BluRay.x264-HDEX.[UsaBit.com]\UsaBit.com_h-banana1080.mkv
    Format                         : Matroska
    Format version                 : Version 2
    File size                      : 390 MiB
    Duration                       : 3mn 45s
    Overall bit rate mode          : Variable
    Overall bit rate               : 14.5 Mbps
    Encoded date                   : UTC 2011-01-27 16:40:38
    Writing application            : mkvmerge v4.0.0 ('The Stars were mine') gemaakt op Jun  6 2010 16:18:42
    Writing library                : libebml v1.0.0 + libmatroska v1.0.0

    Video
    ID                             : 1
    Format                         : AVC
    Format/Info                    : Advanced Video Codec
    Format profile                 :
    High@L4.1
    Format settings, CABAC         : Yes
    Format settings, ReFrames      : 4 frames
    Codec ID                       : V_MPEG4/ISO/AVC
    Duration                       : 3mn 45s
    Bit rate mode                  : Variable
    Bit rate                       : 13.4 Mbps
    Maximum bit rate               : 35.0 Mbps
    Width                          : 1 920 pixels
    Height                         : 1 080 pixels
    Display aspect ratio           : 16:9
    Frame rate mode                : Constant
    Frame rate                     : 23.976 fps
    Color space                    : YUV
    Chroma subsampling             : 4:2:0
    Bit depth                      : 8 bits
    Scan type                      : Progressive
    Bits/(Pixel*Frame)             : 0.270
    Stream size                    : 361 MiB (93%)
    Default                        : Yes
    Forced                         : No
    Color range                    : Limited
    Color primaries                : BT.709
    Transfer characteristics       : BT.709
    Matrix coefficients            : BT.709

    Audio
    ID                             : 2
    Format                         : DTS
    Format/Info                    : Digital Theater Systems
    Mode                           : 16
    Format settings, Endianness    : Big
    Codec ID                       : A_DTS
    Duration                       : 3mn 45s
    Bit rate mode                  : Constant
    Bit rate                       : 768 Kbps
    Channel(s)                     : 6 channels
    Channel positions              : Front: L C R, Side: L R, LFE
    Sampling rate                  : 48.0 KHz
    Bit depth                      : 24 bits
    Compression mode               : Lossy
    Stream size                    : 20.6 MiB (5%)
    Language                       : English
    Default                        : Yes
    Forced                         : Yes
    百度云附件:小黄人短片

    本帖子中包含更多资源

    您需要 登录 才可以下载或查看,没有帐号?注册

    王自如评测网站  g18解锁

    89

    主题

    0

    好友

    1714

    积分

    硕士

    Rank: 9Rank: 9Rank: 9

  • TA的每日心情
    开心
    2017-4-12 13:26
  • 签到天数: 21 天

    [LV.4]偶尔看看III

    G币
    59
    最后登录
    2018-12-15
    注册时间
    2011-12-5
    发表于 2015-11-5 01:33 |显示全部楼层
    收下了  谢谢哈
    120 字节以内
    不支持自定义 Discuz! 代码
    金口才  烟酒网

    57

    主题

    0

    好友

    2535

    积分

    等待验证会员

  • TA的每日心情
    开心
    2016-8-17 01:09
  • 签到天数: 53 天

    [LV.5]常住居民I

    G币
    1
    最后登录
    2017-3-8
    注册时间
    2011-6-29
    发表于 2015-11-5 02:15 |显示全部楼层
    这不叫番外篇。如果非要加个称号就是小黄人前传
    krazyrain  tigerarcade

    272

    主题

    1

    好友

    2万

    积分

    院士

    Rank: 18Rank: 18Rank: 18Rank: 18Rank: 18

  • TA的每日心情
    擦汗
    2018-12-15 10:23
  • 签到天数: 1429 天

    [LV.10]以坛为家III

    G币
    12343
    最后登录
    2018-12-15
    注册时间
    2012-7-22
    发表于 2015-11-5 06:06 |显示全部楼层
    决斗那部不错 友情萌
    I look across a raging war
      and feel the steady beating of my heart



    论坛私信不回,手机党!
    新宝宝乐园  一尘钱币网

    1

    主题

    0

    好友

    337

    积分

    大学专科

    Rank: 5Rank: 5

  • TA的每日心情
    开心
    2016-10-8 23:30
  • 签到天数: 60 天

    [LV.6]常住居民II

    G币
    238
    最后登录
    2018-12-4
    注册时间
    2011-10-13
    发表于 2015-11-5 09:26 |显示全部楼层
    是中午的吗??????
    miracast  艾诺迪亚4官网

    2

    主题

    0

    好友

    399

    积分

    大学专科

    Rank: 5Rank: 5

  • TA的每日心情
    开心
    2018-5-5 11:45
  • 签到天数: 18 天

    [LV.4]偶尔看看III

    G币
    7
    最后登录
    2018-12-14
    注册时间
    2012-12-21
    发表于 2015-11-5 14:53 |显示全部楼层
    给公司有撒娇娇
    美女壁纸打包下载  高富帅俱乐部

    1

    主题

    0

    好友

    242

    积分

    大学专科

    Rank: 5Rank: 5

  • TA的每日心情
    开心
    2016-1-1 10:38
  • 签到天数: 2 天

    [LV.1]初来乍到

    G币
    42
    最后登录
    2018-11-28
    注册时间
    2011-9-23
    发表于 2015-11-5 20:31 |显示全部楼层
    dddddddddddddddd
    艾诺迪亚4plus  索爱x10i刷机教程

    11

    主题

    1

    好友

    2006

    积分

    硕士

    Rank: 9Rank: 9Rank: 9

  • TA的每日心情
    擦汗
    2018-6-7 11:03
  • 签到天数: 59 天

    [LV.5]常住居民I

    G币
    814
    最后登录
    2018-12-13
    注册时间
    2011-8-23
    发表于 2015-11-6 12:36 |显示全部楼层
    ```````````````````````````````````
    3d动画桌面  百度导航

    8

    主题

    0

    好友

    185

    积分

    等待验证会员

  • TA的每日心情
    擦汗
    2016-12-9 15:17
  • 签到天数: 11 天

    [LV.3]偶尔看看II

    G币
    27
    最后登录
    2017-1-6
    注册时间
    2012-6-21
    发表于 2015-11-6 14:33 |显示全部楼层

    谢谢分享
    西游记释厄传二代  你有新的消息请注意查收

    0

    主题

    0

    好友

    394

    积分

    大学专科

    Rank: 5Rank: 5

  • TA的每日心情

    2018-6-20 17:30
  • 签到天数: 266 天

    [LV.8]以坛为家I

    G币
    750
    最后登录
    2018-6-20
    注册时间
    2015-4-23
    发表于 2015-11-6 14:47 |显示全部楼层
    ddddddddddddddddddd
    samsung i9100  显示屏黑屏
    您需要登录后才可以回帖 登录 | 注册

    网上有害信息举报中心|手机版|机锋网 ( 京ICP备15063876号-5

    GMT+8, 2018-12-16 15:25

    Powered by Discuz! X2.5

    © 2001-2012 Comsenz Inc.

    回顶部