请选择 进入手机版 | 继续访问电脑版

机锋论坛

  • 关注机锋
  • 关注机锋
 找回密码
 注册

QQ登录

只需一步,快速开始

查看: 34060|回复: 103

[影音壁纸] 小黄人2010~2013短片6部,最新15年的搜寻中~

[复制链接]

132

主题

0

好友

2884

积分

版主

  • TA的每日心情
    开心
    2018-1-22 23:31
  • 签到天数: 7 天

    [LV.3]偶尔看看II

    G币
    634392
    最后登录
    2018-4-14
    注册时间
    2012-2-24
    发表于 2015-11-5 00:10 |显示全部楼层

    马上注册,结交更多机友,下载更多应用,让你轻松玩转手机。

    立即注册 已有帐号?点击登录   下载游戏和软件,请【猛击这里】进入机锋市场!

    ×

    最火的配角,小黄人。这几个是“卑鄙的我”电影的番外篇,很有趣。原版高清。视频参数如下:
    General
    Unique ID                      : 240434659413765300775405716102590344192 (0xB4E207F12578F69FAB4D4EB916C9AC00)
    Complete name                  : E:\Documents\Desktop\Despicable.Me.Banana.Mini.Movie.2010.1080p.BluRay.x264-HDEX.[UsaBit.com]\UsaBit.com_h-banana1080.mkv
    Format                         : Matroska
    Format version                 : Version 2
    File size                      : 390 MiB
    Duration                       : 3mn 45s
    Overall bit rate mode          : Variable
    Overall bit rate               : 14.5 Mbps
    Encoded date                   : UTC 2011-01-27 16:40:38
    Writing application            : mkvmerge v4.0.0 ('The Stars were mine') gemaakt op Jun  6 2010 16:18:42
    Writing library                : libebml v1.0.0 + libmatroska v1.0.0

    Video
    ID                             : 1
    Format                         : AVC
    Format/Info                    : Advanced Video Codec
    Format profile                 :
    High@L4.1
    Format settings, CABAC         : Yes
    Format settings, ReFrames      : 4 frames
    Codec ID                       : V_MPEG4/ISO/AVC
    Duration                       : 3mn 45s
    Bit rate mode                  : Variable
    Bit rate                       : 13.4 Mbps
    Maximum bit rate               : 35.0 Mbps
    Width                          : 1 920 pixels
    Height                         : 1 080 pixels
    Display aspect ratio           : 16:9
    Frame rate mode                : Constant
    Frame rate                     : 23.976 fps
    Color space                    : YUV
    Chroma subsampling             : 4:2:0
    Bit depth                      : 8 bits
    Scan type                      : Progressive
    Bits/(Pixel*Frame)             : 0.270
    Stream size                    : 361 MiB (93%)
    Default                        : Yes
    Forced                         : No
    Color range                    : Limited
    Color primaries                : BT.709
    Transfer characteristics       : BT.709
    Matrix coefficients            : BT.709

    Audio
    ID                             : 2
    Format                         : DTS
    Format/Info                    : Digital Theater Systems
    Mode                           : 16
    Format settings, Endianness    : Big
    Codec ID                       : A_DTS
    Duration                       : 3mn 45s
    Bit rate mode                  : Constant
    Bit rate                       : 768 Kbps
    Channel(s)                     : 6 channels
    Channel positions              : Front: L C R, Side: L R, LFE
    Sampling rate                  : 48.0 KHz
    Bit depth                      : 24 bits
    Compression mode               : Lossy
    Stream size                    : 20.6 MiB (5%)
    Language                       : English
    Default                        : Yes
    Forced                         : Yes
    游客,如果您要查看本帖隐藏内容请回复或者点击我就看看,不说话

    本帖子中包含更多资源

    您需要 登录 才可以下载或查看,没有帐号?注册

    line安卓  神偷奶爸1国语版

    84

    主题

    0

    好友

    1451

    积分

    研究生

    Rank: 8Rank: 8

  • TA的每日心情
    开心
    2017-4-12 13:26
  • 签到天数: 21 天

    [LV.4]偶尔看看III

    G币
    5
    最后登录
    2018-4-21
    注册时间
    2011-12-5
    发表于 2015-11-5 01:33 |显示全部楼层
    收下了  谢谢哈
    120 字节以内
    不支持自定义 Discuz! 代码
    f160l  s8500刷安卓

    57

    主题

    0

    好友

    2535

    积分

    博士

    Rank: 10Rank: 10Rank: 10

  • TA的每日心情
    开心
    2016-8-17 01:09
  • 签到天数: 53 天

    [LV.5]常住居民I

    G币
    1
    最后登录
    2017-3-8
    注册时间
    2011-6-29
    发表于 2015-11-5 02:15 |显示全部楼层
    这不叫番外篇。如果非要加个称号就是小黄人前传
    歌美g3  沙漠塔防

    268

    主题

    1

    好友

    1万

    积分

    院士

    Rank: 18Rank: 18Rank: 18Rank: 18Rank: 18

  • TA的每日心情
    擦汗
    2018-4-19 13:18
  • 签到天数: 1273 天

    [LV.10]以坛为家III

    G币
    10571
    最后登录
    2018-4-19
    注册时间
    2012-7-22
    发表于 2015-11-5 06:06 |显示全部楼层
    决斗那部不错 友情萌
    I look across a raging war
      and feel the steady beating of my heart



    论坛私信不回,手机党!
    fastboot模式怎么进入  石器时代2猎人传说

    1

    主题

    0

    好友

    333

    积分

    大学专科

    Rank: 5Rank: 5

  • TA的每日心情
    开心
    2016-10-8 23:30
  • 签到天数: 60 天

    [LV.6]常住居民II

    G币
    236
    最后登录
    2018-4-9
    注册时间
    2011-10-13
    发表于 2015-11-5 09:26 |显示全部楼层
    是中午的吗??????
    联通手机流量  htct328wroot

    2

    主题

    0

    好友

    363

    积分

    大学专科

    Rank: 5Rank: 5

  • TA的每日心情
    开心
    2018-4-10 13:34
  • 签到天数: 17 天

    [LV.4]偶尔看看III

    G币
    0
    最后登录
    2018-4-12
    注册时间
    2012-12-21
    发表于 2015-11-5 14:53 |显示全部楼层
    给公司有撒娇娇
    lg optimus 4x  什么浏览器好用稳定速度快 

    1

    主题

    0

    好友

    182

    积分

    高中生

    Rank: 4

  • TA的每日心情
    开心
    2016-1-1 10:38
  • 签到天数: 2 天

    [LV.1]初来乍到

    G币
    2
    最后登录
    2017-11-23
    注册时间
    2011-9-23
    发表于 2015-11-5 20:31 |显示全部楼层
    dddddddddddddddd
    snapdragon 600  lg手机官网首页

    11

    主题

    1

    好友

    1867

    积分

    硕士

    Rank: 9Rank: 9Rank: 9

  • TA的每日心情

    2017-1-25 23:11
  • 签到天数: 58 天

    [LV.5]常住居民I

    G币
    664
    最后登录
    2018-3-8
    注册时间
    2011-8-23
    发表于 2015-11-6 12:36 |显示全部楼层
    ```````````````````````````````````
    wi输入法  华为官网刷机

    8

    主题

    0

    好友

    185

    积分

    高中生

    Rank: 4

  • TA的每日心情
    擦汗
    2016-12-9 15:17
  • 签到天数: 11 天

    [LV.3]偶尔看看II

    G币
    27
    最后登录
    2017-1-6
    注册时间
    2012-6-21
    发表于 2015-11-6 14:33 |显示全部楼层

    谢谢分享
    魅族mx3支持电信吗  米三

    0

    主题

    0

    好友

    389

    积分

    大学专科

    Rank: 5Rank: 5

  • TA的每日心情

    2018-3-12 15:50
  • 签到天数: 265 天

    [LV.8]以坛为家I

    G币
    746
    最后登录
    2018-3-12
    注册时间
    2015-4-23
    发表于 2015-11-6 14:47 |显示全部楼层
    ddddddddddddddddddd
    立此为据  弗雷德狂奔
    您需要登录后才可以回帖 登录 | 注册

    网上有害信息举报中心|手机版|机锋网 ( 京ICP备15020343号 | 京公网安备11010802020450号

    GMT+8, 2018-4-21 16:13

    Powered by Discuz! X2.5

    © 2001-2012 Comsenz Inc.

    回顶部